<?xml version="1.0" standalone="no"?>
<!DOCTYPE svg PUBLIC "-//W3C//DTD SVG 1.1//EN" "http://www.w3.org/Graphics/SVG/1.1/DTD/svg11.dtd">
<svg xmlns="http://www.w3.org/2000/svg">
<metadata>Copyright (C) 2023 by original authors @ fontello.com</metadata>
<defs>
<font id="fontello" horiz-adv-x="1000" >
<font-face font-family="fontello" font-weight="400" font-stretch="normal" units-per-em="1000" ascent="850" descent="-150" />
<missing-glyph horiz-adv-x="1000" />
<glyph glyph-name="014-video" unicode="&#xe800;" d="M1000-150h-1000v1000h1000z m-922 78h844v844h-844z m766 78h-196v78h118v118h78z m-492 0h-196v196h78v-118h118z m72 168h-70v352h70l223-145v-62z m8 253v-154l119 77z m412 71h-78v118h-118v78h196z m-610 0h-78v196h196v-78h-118z" horiz-adv-x="1000" />

<glyph glyph-name="015-3d-glasses" unicode="&#xe801;" d="M844-150h-301l-43 75-43-75h-301c-86 0-156 70-156 156v688c0 86 70 156 156 156h78v-78h-78c-43 0-78-35-78-78v-297h844v297c0 43-35 78-78 78h-78v78h78c86 0 156-70 156-156v-688c0-86-70-156-156-156z m-256 78h256c43 0 78 35 78 78v313h-844v-313c0-43 35-78 78-78h256l88 155z m256 78h-210l-95 166v69h305z m-165 78h87v79h-132z m-313-78h-210v235h305v-69z m-132 78h87l45 79h-132z" horiz-adv-x="1000" />

<glyph glyph-name="016-videocamera" unicode="&#xe802;" d="M547-150h-547v727c0 150 123 273 273 273 138 0 252-102 271-234h456v-391h-453z m-469 78h391v457c-50-50-119-82-196-82s-145 32-195 82z m469 375h375v235h-375z m-274 469c-107 0-195-88-195-195s88-196 195-196 196 88 196 196-88 195-196 195z m118-766h-78v78h78z m-157 0h-78v78h78z m610 375h-219v78h219z m-571 78c-64 0-117 53-117 118s53 117 117 117 118-53 118-117-53-118-118-118z m0 157c-21 0-39-18-39-39s18-39 39-39 40 17 40 39-18 39-40 39z" horiz-adv-x="1000" />

<glyph glyph-name="017-play" unicode="&#xe803;" d="M500-150c-134 0-259 52-354 146-94 95-146 220-146 354s52 259 146 354c95 94 220 146 354 146s259-52 354-146c94-95 146-220 146-354s-52-259-146-354c-95-94-220-146-354-146z m0 922c-113 0-219-44-298-124-80-79-124-185-124-298s44-219 124-298 185-124 298-124 219 44 298 124 124 185 124 298-44 219-124 298c-79 80-185 124-298 124z m-87-656h-69v468h69l341-202v-64z m9 372v-276l233 138z" horiz-adv-x="1000" />

<glyph glyph-name="018-jack" unicode="&#xe804;" d="M55-150l-55 55 109 110-55 55 132 132 55 165 255 255 55-55 249 249c46 45 120 45 166 0 45-46 45-120 0-166l-249-249 55-55-255-255-165-55-132-132-55 55z m110 220l55-55 55 55-55 55z m100 121l76-76 83 27-132 132z m65 155l166-166 166 166-166 166z m277 166l55-55 55 55-55 55z m110 110l55-55 56 55-56 56z m111 111l55-55 27 27c16 16 16 40 0 56-15 15-40 15-55 0z" horiz-adv-x="1000" />

<glyph glyph-name="019-file" unicode="&#xe805;" d="M883-150h-766v1000h492c151 0 274-123 274-273z m-688 78h610v610h-235v234h-375z m453 688h153c-16 76-76 136-153 152z m-224-442h-70v352h70l223-145v-62z m8 253v-154l119 77z" horiz-adv-x="1000" />

<glyph glyph-name="020-video" unicode="&#xe806;" d="M500-150c-134 0-259 52-354 146-94 95-146 220-146 354s52 259 146 354c95 94 220 146 354 146s259-52 354-146c94-95 146-220 146-354s-52-259-146-354c-95-94-220-146-354-146z m0 922c-113 0-219-44-298-124-80-79-124-185-124-298s44-219 124-298 185-124 298-124 219 44 298 124 124 185 124 298-44 219-124 298c-79 80-185 124-298 124z m107-617h-371v390h371v-67l113 28h63v-312h-63l-113 28z m-292 78h214v234h-214z m292 69l98-24v144l-98-24z" horiz-adv-x="1000" />

<glyph glyph-name="021-window" unicode="&#xe807;" d="M1000-150h-1000v1000h1000z m-922 78h844v531h-844z m0 610h844v234h-844z m346-520h-70v352h70l223-145v-62z m8 253v-155l119 78z m115 345h-78v78h78z m-156 0h-78v78h78z m-157 0h-78v78h78z" horiz-adv-x="1000" />

<glyph glyph-name="022-laptop" unicode="&#xe808;" d="M1000-41h-1000v235h78v547h844v-547h78z m-344 79h266v78h-266z m-234 0h156v78h-156z m-344 0h266v78h-266z m78 156h688v469h-688z m277 78h-70v312h70l204-124v-63z m8 216v-119l98 59z" horiz-adv-x="1000" />

<glyph glyph-name="023-videocamera" unicode="&#xe809;" d="M1000-70h-78v89l-156 52v-141h-766v547h85c-21 30-34 67-34 107 0 103 83 186 185 186 60 0 113-28 147-72 34 44 87 72 146 72 103 0 186-83 186-186 0-40-13-77-34-107h85v-141l156 52v89h78z m-922 78h610v391h-610z m688 146l156-52v204l-156-52z m-237 538c-59 0-107-48-107-108s48-107 107-107 108 48 108 107-48 108-108 108z m-293 0c-59 0-107-48-107-108s48-107 107-107 108 48 108 107-48 108-108 108z m373-606h-453v235h453z m-187 79h109v78h-109z m-188 0h110v78h-110z" horiz-adv-x="1000" />

<glyph glyph-name="024-vhs" unicode="&#xe80a;" d="M1000-2h-1000v704h1000z m-922 79h844v390h-117c24-32 39-73 39-117 0-108-88-195-196-195h-296c-108 0-196 87-196 195 0 44 15 85 39 117h-117z m461 156h109c65 0 118 52 118 117s-53 117-118 117h-109v-78h78v-78h-78z m-187 234c-65 0-118-52-118-117s53-117 118-117h109v78h-78v78h78v78z m492 78h78v78h-78z m-610 0h532v78h-532z m-156 0h78v78h-78z" horiz-adv-x="1000" />

<glyph glyph-name="025-screen" unicode="&#xe80b;" d="M617-150h-234v78h78v78h-383v610h-78v234h1000v-234h-78v-610h-383v-78h78z m-461 234h688v532h-688z m688 610h78v78h-78z m-610 0h532v78h-532z m-156 0h78v78h-78z m346-520h-70v352h70l223-145v-62z m8 253v-154l119 77z" horiz-adv-x="1000" />

<glyph glyph-name="026-stop" unicode="&#xe80c;" d="M500-150c-134 0-259 52-354 146-94 95-146 220-146 354s52 259 146 354c95 94 220 146 354 146s259-52 354-146c94-95 146-220 146-354s-52-259-146-354c-95-94-220-146-354-146z m0 922c-113 0-219-44-298-124-80-79-124-185-124-298s44-219 124-298 185-124 298-124 219 44 298 124 124 185 124 298-44 219-124 298c-79 80-185 124-298 124z m195-617h-390v390h390z m-312 78h234v234h-234z" horiz-adv-x="1000" />

<glyph glyph-name="027-projector" unicode="&#xe80d;" d="M922-60h-78v78h-688v-78h-78v78h-78v469h309c49 48 117 78 191 78s142-30 191-78h309v-469h-78z m-231 156h231v313h-175c17-36 26-76 26-118 0-76-31-145-82-195z m-191 0c108 0 195 88 195 195s-87 196-195 196-195-88-195-196 87-195 195-195z m-422 0h231c-51 50-82 119-82 195 0 42 9 82 26 118h-175z m422 78c-65 0-117 53-117 117s52 118 117 118 117-53 117-118-52-117-117-117z m0 157c-21 0-39-18-39-40s18-39 39-39 39 18 39 39-17 40-39 40z m210 245l-68 39 59 102 67-39z m-420 0l-58 102 68 39 58-102z m249 67h-78v117h78z" horiz-adv-x="1000" />

<glyph glyph-name="028-pause" unicode="&#xe80e;" d="M500-150c-134 0-259 52-354 146-94 95-146 220-146 354s52 259 146 354c95 94 220 146 354 146s259-52 354-146c94-95 146-220 146-354s-52-259-146-354c-95-94-220-146-354-146z m0 922c-113 0-219-44-298-124-80-79-124-185-124-298s44-219 124-298 185-124 298-124c113 0 219 44 298 124s124 185 124 298-44 219-124 298c-79 80-185 124-298 124z m156-578h-78v312h78z m-234 0h-78v312h78z" horiz-adv-x="1000" />

<glyph glyph-name="030-security-camera" unicode="&#xe80f;" d="M78-150h-78v672h78v-219h266v78h-188v469h844v-195c0-51-33-95-78-111v-163h-344v-195c0-65-52-117-117-117h-383z m383 297c22 0 39 17 39 39v195h-78v-195c0-22 17-39 39-39z m-383 0h272c-4 12-6 25-6 39v39h-266z m156 312h610v79h-610z m0 157h649c21 0 39 17 39 39v117h-688z" horiz-adv-x="1000" />

<glyph glyph-name="029-sd-card" unicode="&#xe810;" d="M891-150h-782v821l180 179h602z m-703 78h625v844h-492l-133-133v-242h546v-391h-546z m156 156h312v235h-312z m-156 0h78v79h-78z m0 157h78v78h-78z m390-78h-156v78h156z m156 375h-78v156h78z m-156 0h-78v156h78z m-156 0h-78v156h78z" horiz-adv-x="1000" />

<glyph glyph-name="031-videocamera" unicode="&#xe811;" d="M805 38h-649v390h-156v235h531c65 0 117-53 117-118v-39h157v-117h117v78h78v-390h-78v78h-117z m-571 78h493v312h-493z m571 117h117v78h-117z m-414 273h179v39c0 22-17 39-39 39h-140z m-157 0h79v78h-79z m-156 0h78v78h-78z m469-234h-78v78h78z m-156 0h-78v78h78z" horiz-adv-x="1000" />

<glyph glyph-name="032-dvd" unicode="&#xe812;" d="M500-150c-134 0-259 52-354 146-94 95-146 220-146 354s52 259 146 354c95 94 220 146 354 146s259-52 354-146c94-95 146-220 146-354s-52-259-146-354c-95-94-220-146-354-146z m-125 97c40-13 82-19 125-19 113 0 219 44 298 124s124 185 124 298c0 43-6 85-19 125l-138-57c6-22 8-45 8-68 0-151-122-273-273-273-23 0-46 3-67 8z m-248 206c19-37 44-71 75-101 30-31 64-56 101-75l57 138c-39 23-72 56-95 95z m373 392c-108 0-195-87-195-195s87-195 195-195 195 87 195 195-87 195-195 195z m0 227c-113 0-219-44-298-124-80-79-124-185-124-298 0-43 7-85 19-125l138 58c-5 21-8 44-8 67 0 151 122 273 273 273 23 0 46-2 68-8l57 138c-40 13-82 19-125 19z m140-187c39-23 72-56 95-95l138 57c-19 37-44 71-75 101-30 31-64 56-101 75z m-140-352c-65 0-117 52-117 117s52 117 117 117 117-52 117-117-52-117-117-117z m0 156c-21 0-39-17-39-39s18-39 39-39 39 18 39 39-17 39-39 39z" horiz-adv-x="1000" />

<glyph glyph-name="033-server" unicode="&#xe813;" d="M1000-150h-1000v1000h1000z m-922 78h844v229h-844z m0 307h844v230h-844z m0 308h844v229h-844z m766-539h-156v78h156z m-453 0h-78v78h78z m-157 0h-78v78h78z m610 307h-156v78h156z m-453 0h-78v78h78z m-157 0h-78v78h78z m610 307h-156v78h156z m-453 0h-78v78h78z m-157 0h-78v78h78z" horiz-adv-x="1000" />

<glyph glyph-name="034-hard-disc" unicode="&#xe814;" d="M648-150h-609v727h266c8 152 135 273 289 273 159 0 289-130 289-289v-242h78v-313h-234v313h78v242c0 116-95 211-211 211-111 0-203-86-211-195h265z m-531 78h453v414h-453z m688 156h78v157h-78z m-688 336h453v78h-453z m375-414h-78v78h78z" horiz-adv-x="1000" />

<glyph glyph-name="035-camera" unicode="&#xe815;" d="M1000-99h-1000v742h249l78 156h346l78-156h249z m-922 78h844v586h-220l-78 156h-248l-78-156h-220z m766 78h-78v78h78z m-156 0h-532v430h532z m-454 78h375v274h-375z m610 117h-78v79h78z m0 157h-78v78h78z m-266 156h-156v78h156z" horiz-adv-x="1000" />

<glyph glyph-name="036-smartphone" unicode="&#xe816;" d="M852-150h-79v78h-156v-78h-234v78h-78v78h78v78h-78v157h-305v609h1000v-609h-305v-157h-78v-78h156v78h79z m-391 78h78v156h-78z m-78 235h234v78h-234z m-305 156h844v453h-844z m766 148h-78v156h78z m-610 39h-78v78h78z" horiz-adv-x="1000" />

<glyph glyph-name="038-webcam" unicode="&#xe817;" d="M773-150h-546v102c0 66 23 128 65 177-110 69-183 192-183 330 0 216 176 391 391 391s391-175 391-391c0-138-73-261-183-330 42-49 65-111 65-177z m-468 78h390v24c0 54-21 104-60 141-42-16-88-24-135-24-47 0-93 8-135 24-38-37-60-87-60-141z m-115 492c19-154 151-273 310-273s291 119 310 273h-119c-18-89-97-156-191-156-94 0-173 67-191 156z m310 157c-65 0-117-53-117-118s52-117 117-117 117 53 117 117-52 118-117 118z m191-79h119c-19 154-151 274-310 274s-291-120-310-274h119c18 90 97 157 191 157 94 0 173-67 191-157z m-152-78h-78v78h78z" horiz-adv-x="1000" />

<glyph glyph-name="039-hdmi" unicode="&#xe818;" d="M617-150h-234v156h-78v157c-86 0-157 70-157 156v219h79v312h546v-312h79v-219c0-86-70-156-157-156v-157h-78z m-156 78h78v78h-78z m-78 156h234v79h-234z m-156 375v-140c0-43 35-78 78-78h390c43 0 78 35 78 78v140z m78 79h390v234h-390z m312 78h-78v78h78z m-156 0h-78v78h78z" horiz-adv-x="1000" />

<glyph glyph-name="037-framing" unicode="&#xe819;" d="M1000-150h-1000v1000h1000z m-922 78h844v844h-844z m766 78h-196v78h118v118h78z m-492 0h-196v196h78v-118h118z m187 227h-78v78h-78v78h78v78h78v-78h78v-78h-78z m305 265h-78v118h-118v78h196z m-610 0h-78v196h196v-78h-118z" horiz-adv-x="1000" />

<glyph glyph-name="040-hdmi" unicode="&#xe81a;" d="M1000-150h-1000v1000h1000z m-922 78h844v844h-844z m595 227h-346l-39 78h-132v312h688v-312h-132z m-297 78h248l39 78h103v156h-532v-156h103z m202 78h-156v78h156z" horiz-adv-x="1000" />

<glyph glyph-name="041-next" unicode="&#xe81b;" d="M500-150c-134 0-259 52-354 146-94 95-146 220-146 354s52 259 146 354c95 94 220 146 354 146s259-52 354-146c94-95 146-220 146-354s-52-259-146-354c-95-94-220-146-354-146z m0 922c-113 0-219-44-298-124-80-79-124-185-124-298s44-219 124-298 185-124 298-124 219 44 298 124 124 185 124 298-44 219-124 298c-79 80-185 124-298 124z m225-598h-78v352h78z m-379 0h-71v352h71l222-145v-62z m8 253v-154l119 77z" horiz-adv-x="1000" />

<glyph glyph-name="042-previous" unicode="&#xe81c;" d="M500-150c-134 0-259 52-354 146-94 95-146 220-146 354s52 259 146 354c95 94 220 146 354 146s259-52 354-146c94-95 146-220 146-354s-52-259-146-354c-95-94-220-146-354-146z m0 922c-113 0-219-44-298-124-80-79-124-185-124-298s44-219 124-298 185-124 298-124 219 44 298 124 124 185 124 298-44 219-124 298c-79 80-185 124-298 124z m225-598h-71l-222 145v62l222 145h71z m-198 176l120-77v154z m-173-176h-79v352h79z" horiz-adv-x="1000" />

<glyph glyph-name="043-record" unicode="&#xe81d;" d="M500-150c-134 0-259 52-354 146-94 95-146 220-146 354s52 259 146 354c95 94 220 146 354 146s259-52 354-146c94-95 146-220 146-354s-52-259-146-354c-95-94-220-146-354-146z m0 922c-113 0-219-44-298-124-80-79-124-185-124-298s44-219 124-298 185-124 298-124c113 0 219 44 298 124s124 185 124 298-44 219-124 298c-79 80-185 124-298 124z m0-617c-108 0-195 87-195 195s87 195 195 195c108 0 195-87 195-195s-87-195-195-195z m0 312c-65 0-117-52-117-117s52-117 117-117 117 52 117 117-52 117-117 117z" horiz-adv-x="1000" />

<glyph glyph-name="044-brightness" unicode="&#xe81e;" d="M539-150h-78v207h78z m177 47l-103 180 67 39 104-180z m-432 0l-68 39 104 180 67-39z m630 169l-180 104 39 67 180-103z m-827 0l-39 68 179 103 39-67z m413 69c-118 0-215 97-215 215s97 215 215 215 215-96 215-215-96-215-215-215z m0 352c-75 0-137-62-137-137s62-137 137-137 137 62 137 137-62 137-137 137z m500-176h-207v78h207z m-793 0h-207v78h207z m566 152l-39 67 180 104 39-68z m-546 0l-179 103 39 68 179-104z m453 121l-67 39 103 180 68-39z m-360 0l-104 180 68 39 103-180z m219 59h-78v207h78z" horiz-adv-x="1000" />

<glyph glyph-name="045-battery" unicode="&#xe81f;" d="M844 77h-844v546h844v-117h156v-312h-156z m-766 78h688v390h-688z m766 117h78v156h-78z m-297-39h-78v234h78z m-156 0h-78v234h78z m-157 0h-78v234h78z" horiz-adv-x="1000" />

<glyph glyph-name="046-drone" unicode="&#xe820;" d="M898-150h-78v82l-137 106c-28-73-100-126-183-126s-154 53-182 126l-138-106v-82h-78v121l127 98h-112c-64 0-117 52-117 117v117h141v117h-141v78h359v-78h-140v-117h562v117h-140v78h359v-78h-141v-117h141v-117c0-65-53-117-117-117h-112l127-98z m-515 375v-117c0-65 52-117 117-117s117 52 117 117v117z m312-78h188c21 0 39 17 39 39v39h-227z m-617 78v-39c0-22 18-39 39-39h188v78z m461-156h-78v78h78z m234 508h-78c0 107-87 195-195 195s-195-88-195-195h-78c0 150 122 273 273 273s273-123 273-273z m-156 0h-78c0 21-17 39-39 39s-39-18-39-39h-78c0 64 52 117 117 117s117-53 117-117z" horiz-adv-x="1000" />

<glyph glyph-name="047-spotlight" unicode="&#xe821;" d="M755-150h-510l39 188h-96v96l-188-39v510l188-39v97h96l-39 187h510l-39-187h97v-97l187 39v-510l-187 39v-96h-97z m-414 78h318l-23 110h-272z m-75 188h468v468h-468z m547 98l109-23v318l-109-23z m-735 295v-318l110 23v272z m286 154h272l23 109h-318z m136-469c-86 0-156 70-156 156s70 156 156 156 156-70 156-156-70-156-156-156z m0 234c-43 0-78-35-78-78s35-78 78-78 78 35 78 78-35 78-78 78z" horiz-adv-x="1000" />

<glyph glyph-name="048-folder" unicode="&#xe822;" d="M1000-111h-1000v922h376l39-78h585z m-922 78h844v531h-844z m0 610h844v78h-555l-40 78h-249z m346-520h-70v352h70l223-145v-62z m8 253v-155l119 78z" horiz-adv-x="1000" />

<glyph glyph-name="049-tv" unicode="&#xe823;" d="M1000-72h-1000v78h78v78h-78v688h1000v-688h-78v-78h78z m-844 78h688v78h-688z m-78 157h844v531h-844z m695 109h-78c0 51-32 94-78 110v-110h-78v312h78v-110c46 16 78 59 78 110h78c0-63-30-120-78-156 48-35 78-92 78-156z m-312 0h-78v117h-39c-65 0-117 53-117 117v78h78v-78c0-21 17-39 39-39h39v117h78z" horiz-adv-x="1000" />

<glyph glyph-name="050-aperture" unicode="&#xe824;" d="M500-150c-134 0-259 52-354 146-94 95-146 220-146 354s52 259 146 354c95 94 220 146 354 146s259-52 354-146c94-95 146-220 146-354s-52-259-146-354c-95-94-220-146-354-146z m214 422l-198-344c107 4 206 48 282 124 10 9 18 19 27 29z m-571-147c16-26 36-51 59-73 62-63 141-104 227-118l111 191z m532 372l198-344c32 60 49 127 49 197 0 51-9 100-26 147z m-260-293h170l84 146-84 147h-170l-84-147z m-311 0h221l-198 343c-32-60-49-127-49-197 0-51 9-100 26-146z m71 415l111-191 198 344c-107-4-206-48-282-124-10-9-18-19-27-29z m286-44h396c-16 26-36 51-59 73-62 63-141 104-227 118z" horiz-adv-x="1000" />

<glyph glyph-name="001-hd" unicode="&#xe825;" d="M813-72h-625v78h156v78h-344v688h1000v-688h-344v-78h157z m-391 78h156v78h-156z m-344 157h844v531h-844z m578 109h-117v312h117c65 0 117-52 117-117v-78c0-65-52-117-117-117z m-39 78h39c22 0 39 18 39 39v78c0 22-17 39-39 39h-39z m-156-78h-78v117h-78v-117h-78v312h78v-117h78v117h78z" horiz-adv-x="1000" />

<glyph glyph-name="002-film" unicode="&#xe826;" d="M1000-72h-1000v844h1000z m-195 78h117v114h-117z m-532 0h454v688h-454z m-195 0h117v114h-117z m727 192h117v113h-117z m-727 0h117v113h-117z m727 191h117v113h-117z m-727 0h117v113h-117z m727 192h117v113h-117z m-727 0h117v113h-117z m355-387h-70v312h70l204-124v-64z m8 216v-119l98 59z" horiz-adv-x="1000" />

<glyph glyph-name="003-videocamera" unicode="&#xe827;" d="M688-80h-688v547h219v235h156v78h273c65 0 118-53 118-117s-53-118-118-118h-273v78h-78v-156h391v-117h106l137 78h69v-469h-69l-137 79h-106z m-610 78h531v391h-531z m766 101l78-44v278l-78-45z m-156 17h78v156h-78z m-235 507h195c22 0 40 18 40 40s-18 39-40 39h-195z m78-546h-375v234h375z m-297 78h219v78h-219z" horiz-adv-x="1000" />

<glyph glyph-name="004-files" unicode="&#xe828;" d="M688-150h-688v688h688z m-610 78h531v531h-531z m766 78h-78v610h-610v78h688z m-577 12h-70v352h70l223-145v-62z m8 253v-155l120 78z m725-108h-78v609h-609v78h687z" horiz-adv-x="1000" />

<glyph glyph-name="005-film" unicode="&#xe829;" d="M1000-150h-500c-134 0-259 52-354 146-94 95-146 220-146 354s52 259 146 354c95 94 220 146 354 146s259-52 354-146c94-95 146-220 146-354s-52-259-146-354c-26-26-55-49-85-68h231z m-500 922c-113 0-219-44-298-124-80-79-124-185-124-298s44-219 124-298 185-124 298-124 219 44 298 124 124 185 124 298-44 219-124 298c-79 80-185 124-298 124z m0-766c-66 0-119 54-119 119s53 120 119 120 119-54 119-120-53-119-119-119z m0 161c-23 0-41-19-41-42s18-41 41-41 41 19 41 41-18 42-41 42z m225 64c-66 0-120 53-120 119s54 119 120 119c65 0 119-53 119-119s-54-119-119-119z m0 160c-23 0-41-18-41-41s18-41 41-41 41 18 41 41-19 41-41 41z m-450-160c-65 0-119 53-119 119s54 119 119 119c66 0 120-53 120-119s-54-119-120-119z m0 160c-22 0-41-18-41-41s19-41 41-41 42 18 42 41-19 41-42 41z m225 64c-66 0-119 54-119 120s53 119 119 119 119-54 119-119-53-120-119-120z m0 161c-23 0-41-19-41-41s18-41 41-41 41 18 41 41-18 41-41 41z" horiz-adv-x="1000" />

<glyph glyph-name="008-smartphone" unicode="&#xe82a;" d="M813-150h-625v1000h625z m-547 78h468v844h-468z m312 78h-156v78h156z m-145 188h-70v312h70l204-124v-64z m8 216v-119l98 59z m98 206h-78v78h78z" horiz-adv-x="1000" />

<glyph glyph-name="006-movie" unicode="&#xe82b;" d="M500-150c-134 0-259 52-354 146-94 95-146 220-146 354s52 259 146 354c95 94 220 146 354 146s259-52 354-146c94-95 146-220 146-354s-52-259-146-354c-95-94-220-146-354-146z m39 159v-79c98 9 189 51 259 122s113 161 122 259h-78c-18-158-144-285-303-302z m-459 302c9-98 51-189 122-259s161-113 259-122v79c-158 17-285 144-302 302z m420 305c-146 0-266-119-266-266s120-266 266-266 266 120 266 266v39h154c-9 98-51 189-122 259s-161 113-259 122v-78c77-9 148-43 204-99l-55-55c-50 50-117 78-188 78z m-420-227h79c17 159 144 285 302 303v78c-98-9-189-51-259-122s-113-161-122-259z m537-195h-234v78h78v99c-23-13-50-21-78-21v78c43 0 78 35 78 78h78v-234h78z" horiz-adv-x="1000" />

<glyph glyph-name="009-film" unicode="&#xe82c;" d="M1000 6h-1000v688h1000z m-184 78h106v79h-106z m-185 0h107v79h-107z m-184 0h106v79h-106z m-184 0h106v79h-106z m-185 0h106v79h-106z m645 157h199v218h-199z m-368 0h290v218h-290z m-277 0h199v218h-199z m738 297h106v78h-106z m-185 0h107v78h-107z m-184 0h106v78h-106z m-184 0h106v78h-106z m-185 0h106v78h-106z" horiz-adv-x="1000" />

<glyph glyph-name="010-frame" unicode="&#xe82d;" d="M1000-150h-1000v1000h1000z m-922 78h844v391h-844z m625 469h153l-220 190-76-66z m-559 0h439l-219 190z m492 293l286-247v329h-844v-329l286 247 136-118z m-245-684h-78v78h-157v79h157v78h78v-78h453v-79h-453z" horiz-adv-x="1000" />

<glyph glyph-name="007-projector" unicode="&#xe82e;" d="M766 275h-532v-234h532z m-305-156h-148v78h148z m227 0h-149v78h149z m-532-157h688v322c28 7 54 17 78 31v-429h-844v429c24-14 51-24 78-31z m614 391c-127 0-231 103-231 230s104 231 231 231 230-103 230-231-103-230-230-230z m-108 123c27-28 65-45 108-45s80 17 108 45l-108 62z m69 255c-66-18-114-77-114-148 0-13 2-27 6-39l108 62z m78-125l108-62c3 12 5 26 5 39 0 71-48 130-113 148z m-578-253c-128 0-231 103-231 230s103 231 231 231 230-103 230-231-103-230-230-230z m39 208v-125c65 17 113 77 113 147 0 14-2 28-5 40z m-187 62c-3-12-5-26-5-40 0-70 48-130 113-147v125z m40 68l108-62 107 62c-27 28-65 45-107 45s-81-17-108-45z" horiz-adv-x="1000" />

<glyph glyph-name="011-film" unicode="&#xe82f;" d="M1000-150h-1000v1000h1000z m-922 78h844v844h-844z m766 76h-78v78h78z m-610 0h-78v78h78z m610 153h-78v78h78z m-610 0h-78v78h78z m190 17h-70v352h70l223-145v-62z m8 253v-154l119 77z m412-116h-78v78h78z m-610 0h-78v78h78z m610 154h-78v78h78z m-610 0h-78v78h78z m610 153h-78v78h78z m-610 0h-78v78h78z" horiz-adv-x="1000" />

<glyph glyph-name="012-clapperboard" unicode="&#xe830;" d="M958-150h-844v504l-72 173 780 323 89-216-562-233h609v-551z m-766 78h688v238h-688z m574 316h114v79h-114z m-191 0h113v79h-113z m-191 0h113v79h-113z m-192 0h113v79h-113z m-48 241l30-72 105 43-30 72z m177 73l30-72 105 43-30 72z m177 73l30-72 105 44-30 72z m177 74l30-73 104 44-29 72z m48-695h-375v78h375z" horiz-adv-x="1000" />

<glyph glyph-name="013-security-camera" unicode="&#xe831;" d="M500-91c-113 0-219 43-298 123-80 80-124 186-124 299v209c-45 16-78 60-78 111v140h1000v-140c0-51-33-95-78-111v-209c0-113-44-219-124-299s-185-123-298-123z m-195 139c55-39 123-61 195-61s140 22 195 61v134c0 108-87 195-195 195-108 0-195-87-195-195z m195 408c151 0 273-123 273-274v-60c45 58 71 130 71 209v203h-688v-203c0-79 27-151 71-209v60c0 151 122 274 273 274z m-422 257v-62c0-22 18-39 39-39h766c21 0 39 17 39 39v62z m422-648c-65 0-117 52-117 117s52 117 117 117 117-52 117-117-52-117-117-117z m0 156c-21 0-39-17-39-39s18-39 39-39 39 18 39 39-17 39-39 39z" horiz-adv-x="1000" />
</font>
</defs>
</svg>
